Скорость ВПС

О виртуальном выделенном сервере

Модераторы: dobs, ArniXXX, hostess, pseudo

Ответить
Сообщение
Автор
dobs
HO Moderators
Сообщения: 2504
Зарегистрирован: Вс апр 09, 2006 14:42
Откуда: /home/Ukraine/Kiev
Контактная информация:

Скорость ВПС

#1 Сообщение dobs » Чт ноя 11, 2010 01:31

Затестил скорость конвертирования видео через ffmpeg (все компы конвертили один и тот же файл)

Результаты
Ноут (Intel(R) Pentium(R) Dual CPU T2390 @ 1.86GHz, 4 гб рамы, ATI Technologies Inc RV516 Mobility Radeon X1350)
2m42.933s

VPS (700 MHz, 1 гб рамы, видяха не обнаружена)
6m23.635s

Домашний сервак (Intel(R) Atom(TM) CPU 330 @ 1.60GHz, 2 гб рамы, Intel Corporation 82945G/GZ)
9m3.605s

Старый тазик одноядерник (Intel(R) Celeron(R) CPU 2.66GHz, 1.5 гб рамы, nVidia GeForce4 MX 440 AGP 8x)
3m36.070s

Как видим то ВПС показала не плохой результат (лучше чем интел атом), предполагаю что чем сильнее видяха тем быстрее...



Перегон совершался данной командой

Код: Выделить всё

time ffmpeg -i vid.avi -ar 44100 -ab 32 -f flv -s 500x280 video.flv
Инфо об исходнике

Код: Выделить всё

# ffmpeg -i vid.avi 
FFmpeg version 0.6-rpmfusion, Copyright (c) 2000-2010 the FFmpeg developers
.......
Input #0, avi, from 'vid.avi':
  Metadata:
    ISFT            : Lavf52.0.0
  Duration: 00:07:53.44, start: 0.000000, bitrate: 1379 kb/s
    Stream #0.0: Video: msmpeg4, yuv420p, 640x360, 30 tbr, 30 tbn, 30 tbc
    Stream #0.1: Audio: mp3, 44100 Hz, 2 channels, s16, 256 kb/s
At least one output file must be specified

pseudo
HO Support
Сообщения: 136
Зарегистрирован: Чт май 20, 2010 10:24
Откуда: kyiv.ua
Контактная информация:

#2 Сообщение pseudo » Вт ноя 23, 2010 13:57

Насправді, відео на сервері від Intel, онбордне. Зате ми можемо собі дозволити перерозподіляти навантаження між процессорами, процессори підтримують новітні технології роботи з мультимедією (всілякі там SSE і т.і). Може, ffmpeg вміє нормально використовувати розпаралелювання кодування, що також додасть швидкості.
Вцілому, результат очікуваний.
Лучше обрез в руках, чем Калашников на складе

dobs
HO Moderators
Сообщения: 2504
Зарегистрирован: Вс апр 09, 2006 14:42
Откуда: /home/Ukraine/Kiev
Контактная информация:

#3 Сообщение dobs » Вт ноя 23, 2010 19:12

Угум есть мультиядерный ffmpeg но на ВПС одно ядро) + гугли насчет аппаратного декодирования но под линь такого еще нима, говорят какое то падло патент сделало...

pseudo
HO Support
Сообщения: 136
Зарегистрирован: Чт май 20, 2010 10:24
Откуда: kyiv.ua
Контактная информация:

#4 Сообщение pseudo » Вт ноя 23, 2010 19:37

Ядро одне, але надається воно динамічно по мірі навантаження на інші CPU системи. Використати можна лише 1 ядро повністю одним клієнстьким контейнером. І то не повністю :)
А про відео я от до чого:
предполагаю что чем сильнее видяха тем быстрее...
Так от, відяха в сервері набортна intel, вона явно не використовується ffmpeg.
Лучше обрез в руках, чем Калашников на складе

Ответить